[Ffmpeg-devel] hd clip from a Sony Z1U

François Revol revol
Thu Jun 30 13:06:46 CEST 2005

> I have a clip from a Sony Z1U (their new hd camera) that ffmpeg 
> refuses 
> to even probe. It says I/O error occured.
> If anyone would like an example I have one at
>  engene.se/hd.mov
> It's 7MB big.

ffmpeg version 0.4.9-pre1, build 4756, Copyright (c) 2000-2004 Fabrice 
  configuration:  --enable-mp3lame --enable-shared --disable-audio-beos 
--disable-ffserver --disable-vhook --disable-debug
  built on Jun 11 2005 23:20:45, gcc: 2.95.3-beos-041111
Input #0, mov,mp4,m4a,3gp,3g2, from 'hd.mov':
  Duration: 00:00:13.3, start: 0.000000, bitrate: 4421 kb/s
  Stream #0.0: Video: HDV 1080i60, 1440x1080, 29.97 fps
  Stream #0.1: Audio: pcm_s16be, 48000 Hz, stereo, 1536 kb/s
Must supply at least one output file

Works here.


More information about the ffmpeg-devel mailing list