[Ffmpeg-devel] mov files problem

DKorchev at aol.com DKorchev
Thu Mar 2 21:05:23 CET 2006

I found a problem while converting some .mov files (the  links provided) into 
uncompressed avi, see the log below. It starts  transcoding and after a while 
it goes to infinite loop. This is a Windows DLL  build of ffmpeg.
Please let me know if you need more info.
C:\ffmpeg_2006_02_21\ffmpeg>ffmpeg_g -i C:\source\commercial1.mov  -vcode
c rawvideo -acodec pcm_s16le C:\output\commercial1.mov.avi
FFmpeg  version CVS, Copyright (c) 2000-2004 Fabrice Bellard
configuration:  --enable-shared --enable-memalign-hack  --disable-static
libavutil version: 49.0.0
libavcodec  version: 51.7.0
libavformat version: 50.3.0
built on Feb 21  2006 14:12:23, gcc: 3.2.3 (mingw special 20030504-1)
Input #0,  mov,mp4,m4a,3gp,3g2, from 'C:\source\commercial1.mov':
Duration:  00:00:30.1, start: 0.000000, bitrate: 164 kb/s
Stream #0.0(eng):  Audio: qdm2, 22050 Hz, stereo
Stream #0.1(eng), 11.99 fps(r): Video:  h263, yuv420p, 240x180
Output #0, avi, to  'C:\output\commercial1.mov.avi':
Stream #0.0, 11.99 fps(c): Video:  rawvideo, yuv420p, 240x180, q=2-31, 200 
  Stream #0.1: Audio: pcm_s16le, 22050 Hz, stereo, 705 kb/s
Stream  mapping:
Stream #0.1 -> #0.0
Stream #0.0 ->  #0.1
bad superblock typeize=   22872kB time=27.0  bitrate=6932.5kbits/s
bad superblock type
bad superblock type
bad  superblock type
bad superblock type
bad superblock type
bad superblock  type
bad superblock type
bad packet checksum
^CTerminate batch job  (Y/N)? ^Cn 

-------------- next part --------------
An embedded message was scrubbed...
From: DKorchev at aol.com
Subject: mov files problem
Date: Thu, 2 Mar 2006 14:58:43 EST
Size: 2481
URL: <http://lists.mplayerhq.hu/pipermail/ffmpeg-devel/attachments/20060302/5f2dbc68/attachment.eml>

More information about the ffmpeg-devel mailing list