[Ffmpeg-devel] unsupported codec in mov file

Benjamin Larsson banan
Tue Mar 7 23:18:38 CET 2006

DKorchev at aol.com wrote:

>could you help me with this problem. Please see the log and link  below.
>C:\ffmpeg_2006_03_06\ffmpeg>ffmpeg_g -i C:\source\bigmov2.mov -vcodec  ra
>wvideo -acodec pcm_s16le C:\output\bigmov2.avi
>FFmpeg version CVS,  Copyright (c) 2000-2004 Fabrice Bellard
>configuration:   --enable-shared --disable-static --enable-memalign-hack  
>libavutil version: 49.0.0
>libavcodec  version: 51.7.0
>libavformat version: 50.3.0
>built on  Mar  6 2006 18:10:05, gcc: 3.2.3 (mingw special 20030504-1)
>Input #0,  mov,mp4,m4a,3gp,3g2,mj2, from 'C:\source\bigmov2.mov':
>Duration:  00:00:30.0, start: 0.000000, bitrate: 2836 kb/s
>Stream #0.0(eng),  2997.00 fps(r): Video: svq3, yuv420p, 640x350
>Stream #0.1(eng): Audio:  mp4a / 0x6134706D, 44100 Hz, stereo
Hi, try adding faad(AAC) support to ffmpeg, that might fix it.

Benjamin Larsson

"incorrect information" is an oxymoron. Information is, by definition, factual, correct.

More information about the ffmpeg-devel mailing list