[Ffmpeg-devel] Force feeding format

stream at ns.slackware.ru stream
Wed Apr 4 16:30:20 CEST 2007


Could somebody explain, how to force feeding format?
-vcodec xvid (or something else) cannot help, ffmpeg shows flv:

Input #0, video4linux2, from '/dev/video0':
   Duration: N/A, bitrate: 30412 kb/s
   Stream #0.0: Video: rawvideo, yuv420p, 352x288, 30412 kb/s, 25.00 fps(r)
Output #0, ffm, to '':
   Stream #0.0: Video: flv, yuv420p, 160x128, q=3-31, 64 kb/s, 12.00 fps(c)

Or, maybe, I'm not correct?

More information about the ffmpeg-devel mailing list