[Ffmpeg-devel] [BUG] ffmpeg not displaying correct values at the end of process

Baptiste Coudurier baptiste.coudurier
Sat Apr 14 17:32:48 CEST 2007


ffmpeg -vn -i verona60avi56k.avi test.wma

FFmpeg version SVN-r8731, Copyright (c) 2000-2007 Fabrice Bellard, et al.
  configuration: --cc=gcc-4.2 --enable-libfaad --enable-libfaac
--enable-gpl --enable-pthreads --enable-libmp3lame --enable-liba52
--enable-x264 --enable-pp --disable-vhook --enable-swscaler
  libavutil version: 49.4.0
  libavcodec version: 51.40.3
  libavformat version: 51.12.1
  built on Apr 14 2007 17:00:49, gcc: 4.2.0 20070105 (prerelease)
(Debian 4.2-20070105-1)
Input #0, avi, from 'verona60avi56k.avi':
  Duration: 08:34:24.3, start: 0.000000, bitrate: 0 kb/s
  Stream #0.0: Video: msmpeg4v2, yuv420p, 280x210, 12.50 fps(r)
  Stream #0.1: Audio: adpcm_ms, 11025 Hz, mono, 45 kb/s
File 'test.wma' already exists. Overwrite ? [y/N] y
Output #0, asf, to 'test.wma':
  Stream #0.0: Audio: mp3, 11025 Hz, mono, 64 kb/s
Stream mapping:
  Stream #0.1 -> #0.0
Press [q] to stop encoding
size=       0kB time=61.9 bitrate=   0.1kbits/s
video:0kB audio:483kB global headers:0kB muxing overhead -99.917553%

size should be more than 483kb and obviously overhead value is wrong.


Baptiste COUDURIER                              GnuPG Key Id: 0x5C1ABAAA
SMARTJOG S.A.                                    http://www.smartjog.com
Key fingerprint                 8D77134D20CC9220201FC5DB0AC9325C5C1ABAAA
Phone: +33 1 49966312

More information about the ffmpeg-devel mailing list