[FFmpeg-devel] [Ffmpeg-user] (no subject)

Baptiste Coudurier baptiste.coudurier
Tue May 29 00:12:01 CEST 2007


Trendy Wanabee wrote:
> Hi everyone,
> I have issues playing several files encoded with reference encoders.
> I put some of them on the dedicated ftp in MPlayer/incoming/phil/  
> along with a quick description.
> Best regards,

ff1.ts, ff2.ts, ski.ts, smith.ts, bal.ts: PAFF interlaced, not supported 

[h264 @ 0x85bcba8]top block unavailable for requested intra4x4 mode -1 
at 0 0
[h264 @ 0x85bcba8]error while decoding MB 0 0, bytestream (23517)
[h264 @ 0x85bcba8]concealing 855 DC, 855 AC, 855 MV errors
Input #0, mpegts, from 'mat.ts':
   Duration: 00:01:08.0, start: 0.500000, bitrate: 1204 kb/s
   Stream #0.0[0x400]: Video: h264, yuv420p, 720x304,  0.01 fps(r)
   Stream #0.1[0x401]: Audio: aac
Must supply at least one output file

Indeed something looks weird (maybe still PAFF ?). AAC seems not 
correctly decoded either (while it plays fine with mplayer and vlc)

mex.ts plays fine here.

robots.ts: decodes fine but fps is misdetected:
Input #0, mpegts, from 'robots.ts':
   Duration: 00:00:29.8, start: 0.024000, bitrate: 2019 kb/s
   Stream #0.0[0x121]: Video: h264, yuv420p, 720x576, 12.50 fps(r)

Should be 25 as reported by mplayer ?

Baptiste COUDURIER                              GnuPG Key Id: 0x5C1ABAAA
SMARTJOG S.A.                                    http://www.smartjog.com
Key fingerprint                 8D77134D20CC9220201FC5DB0AC9325C5C1ABAAA
Phone: +33 1 49966312

More information about the ffmpeg-devel mailing list