[FFmpeg-devel] [PATCH] NellyMoser audio decoder v2

Pascal LOYAN Pascal.LOYAN
Thu Oct 18 15:08:20 CEST 2007


I tried ffmpeg on my own flv file containing NellyMoser audio, but had
segmentation fault:

ffmpeg -y -i input.flv -vn output.wav
FFmpeg version SVN-r10773, Copyright (c) 2000-2007 Fabrice Bellard, et al.
  configuration: --enable-libamr-nb --enable-libmp3lame --enable-libfaad
e-libfaac --enable-gpl
  libavutil version: 49.5.0
  libavcodec version: 51.46.0
  libavformat version: 51.15.0
  built on Oct 18 2007 10:37:59, gcc: 3.2.3 20030502 (Red Hat Linux 3.2.3-59)
Input #0, flv, from 'input.flv':
  Duration: 00:00:08.4, start: 0.000000, bitrate: N/A
  Stream #0.0: Video: flv, yuv420p, 176x132, 1000.00 fps(r)
  Stream #0.1: Audio: nellymoser, 11025 Hz, mono
Output #0, wav, to 'output.wav':
  Stream #0.0: Audio: pcm_s16le, 11025 Hz, mono, 176 kb/s
Stream mapping:
  Stream #0.1 -> #0.0
Press [q] to stop encoding
Segmentation fault

You can download the input.flv: http://ffmpeg.pl.devwap.com/input.flv


-----Message d'origine-----
De : ffmpeg-devel-bounces at mplayerhq.hu
[mailto:ffmpeg-devel-bounces at mplayerhq.hu] De la part de Diego Biurrun
Envoy? : mardi 16 octobre 2007 01:17
? : FFmpeg development discussions and patches
Objet : Re: [FFmpeg-devel] [PATCH] NellyMoser audio decoder v2

On Mon, Oct 15, 2007 at 06:31:29PM +0200, Benjamin Larsson wrote:
> Applied.

It seems that we only have one sample in the collection, could you add some
more?  Does anyone else have some more samples?

ffmpeg-devel mailing list
ffmpeg-devel at mplayerhq.hu

More information about the ffmpeg-devel mailing list