[FFmpeg-trac] #5552(undetermined:closed): IFF ANIM: support ANIM-3

FFmpeg trac at avcodec.org
Fri May 13 23:35:11 CEST 2016


#5552: IFF ANIM: support ANIM-3
-------------------------------------+-------------------------------------
             Reporter:  ami_stuff    |                    Owner:
                 Type:  defect       |                   Status:  closed
             Priority:  normal       |                Component:
              Version:  unspecified  |  undetermined
             Keywords:               |               Resolution:  fixed
             Blocking:               |               Blocked By:
Analyzed by developer:  0            |  Reproduced by developer:  0
-------------------------------------+-------------------------------------
Changes (by richardpl):

 * status:  new => closed
 * resolution:   => fixed


Old description:

> decodes correctly with ShowANIM from:
>
> ‚Äčhttp://aminet.net/package/docs/misc/IFFSpecs
>
> IFF ANIM-3 files which I created (http://samples.ffmpeg.org/anim/)
> decodes incorrectly with ShowANIM, so may be broken
>
> {{{
> C:\>ffmpeg -i 0x301_2001-PanAm.anim out.avi
> ffmpeg version 3.0.git Copyright (c) 2000-2016 the FFmpeg developers
>   built with gcc 4.6.2 (GCC)
>   configuration: --disable-pthreads --enable-gpl --disable-ffprobe
>   libavutil      55. 24.100 / 55. 24.100
>   libavcodec     57. 40.100 / 57. 40.100
>   libavformat    57. 36.100 / 57. 36.100
>   libavdevice    57.  0.101 / 57.  0.101
>   libavfilter     6. 45.100 /  6. 45.100
>   libswscale      4.  1.100 /  4.  1.100
>   libswresample   2.  0.101 /  2.  0.101
>   libpostproc    54.  0.100 / 54.  0.100
> [iff @ 021ad1a0] Warning: not compiled with thread support, using thread
> emulati
> on
> Input #0, iff, from '0x301_2001-PanAm.anim':
>   Duration: N/A, bitrate: N/A
>     Stream #0:0: Video: iff_ilbm (ANIM / 0x4D494E41), pal8, 352x440, SAR
> 20:11 D
> AR 16:11, 60 fps, 60 tbr, 60 tbn
> [iff @ 02538200] Warning: not compiled with thread support, using thread
> emulati
> on
> [mpeg4 @ 02539400] Warning: not compiled with thread support, using
> thread emula
> tion
> [avi @ 0253e760] Using AVStream.codec to pass codec parameters to muxers
> is depr
> ecated, use AVStream.codecpar instead.
> Output #0, avi, to 'out.avi':
>   Metadata:
>     ISFT            : Lavf57.36.100
>     Stream #0:0: Video: mpeg4 (FMP4 / 0x34504D46), yuv420p, 352x440 [SAR
> 20:11 D
> AR 16:11], q=2-31, 200 kb/s, 60 fps, 60 tbn
>     Metadata:
>       encoder         : Lavc57.40.100 mpeg4
>     Side data:
>       cpb: bitrate max/min/avg: 0/0/200000 buffer size: 0 vbv_delay: -1
> Stream mapping:
>   Stream #0:0 -> #0:0 (iff_ilbm (iff) -> mpeg4 (native))
> Press [q] to stop, [?] for help
> [iff @ 02538200] bitmap (compression 0x301, bpp 5, ham 0) is not
> implemented. Up
> date your FFmpeg version to the newest one from Git. If the problem still
> occurs
> , it means that your file has a feature which has not been implemented.
> [iff @ 02538200] If you want to help, upload a sample of this file to
> ftp://uplo
> ad.ffmpeg.org/incoming/ and contact the ffmpeg-devel mailing list.
> (ffmpeg-devel
> @ffmpeg.org)
> Error while decoding stream #0:0: Invalid data found when processing
> input
> [iff @ 02538200] bitmap (compression 0x301, bpp 5, ham 0) is not
> implemented. Up
> date your FFmpeg version to the newest one from Git. If the problem still
> occurs
> , it means that your file has a feature which has not been implemented.
> [iff @ 02538200] If you want to help, upload a sample of this file to
> ftp://uplo
> ad.ffmpeg.org/incoming/ and contact the ffmpeg-devel mailing list.
> (ffmpeg-devel
> @ffmpeg.org)
> Error while decoding stream #0:0: Invalid data found when processing
> input
> [iff @ 02538200] bitmap (compression 0x301, bpp 5, ham 0) is not
> implemented. Up
> date your FFmpeg version to the newest one from Git. If the problem still
> occurs
> , it means that your file has a feature which has not been implemented.
> [iff @ 02538200] If you want to help, upload a sample of this file to
> ftp://uplo
> ad.ffmpeg.org/incoming/ and contact the ffmpeg-devel mailing list.
> (ffmpeg-devel
> @ffmpeg.org)
> Error while decoding stream #0:0: Invalid data found when processing
> input
> [iff @ 02538200] bitmap (compression 0x301, bpp 5, ham 0) is not
> implemented. Up
> date your FFmpeg version to the newest one from Git. If the problem still
> occurs
> , it means that your file has a feature which has not been implemented.
> [iff @ 02538200] If you want to help, upload a sample of this file to
> ftp://uplo
> ad.ffmpeg.org/incoming/ and contact the ffmpeg-devel mailing list.
> (ffmpeg-devel
> @ffmpeg.org)
> Error while decoding stream #0:0: Invalid data found when processing
> input
> [iff @ 02538200] bitmap (compression 0x301, bpp 5, ham 0) is not
> implemented. Up
> date your FFmpeg version to the newest one from Git. If the problem still
> occurs
> , it means that your file has a feature which has not been implemented.
> [iff @ 02538200] If you want to help, upload a sample of this file to
> ftp://uplo
> ad.ffmpeg.org/incoming/ and contact the ffmpeg-devel mailing list.
> (ffmpeg-devel
> @ffmpeg.org)
> Error while decoding stream #0:0: Invalid data found when processing
> input
> [iff @ 02538200] bitmap (compression 0x301, bpp 5, ham 0) is not
> implemented. Up
> date your FFmpeg version to the newest one from Git. If the problem still
> occurs
> , it means that your file has a feature which has not been implemented.
> [iff @ 02538200] If you want to help, upload a sample of this file to
> ftp://uplo
> ad.ffmpeg.org/incoming/ and contact the ffmpeg-devel mailing list.
> (ffmpeg-devel
> @ffmpeg.org)
> Error while decoding stream #0:0: Invalid data found when processing
> input
> [iff @ 02538200] bitmap (compression 0x301, bpp 5, ham 0) is not
> implemented. Up
> date your FFmpeg version to the newest one from Git. If the problem still
> occurs
> , it means that your file has a feature which has not been implemented.
> [iff @ 02538200] If you want to help, upload a sample of this file to
> ftp://uplo
> ad.ffmpeg.org/incoming/ and contact the ffmpeg-devel mailing list.
> (ffmpeg-devel
> @ffmpeg.org)
> Error while decoding stream #0:0: Invalid data found when processing
> input
> [iff @ 02538200] bitmap (compression 0x301, bpp 5, ham 0) is not
> implemented. Up
> date your FFmpeg version to the newest one from Git. If the problem still
> occurs
> , it means that your file has a feature which has not been implemented.
> [iff @ 02538200] If you want to help, upload a sample of this file to
> ftp://uplo
> ad.ffmpeg.org/incoming/ and contact the ffmpeg-devel mailing list.
> (ffmpeg-devel
> @ffmpeg.org)
> Error while decoding stream #0:0: Invalid data found when processing
> input
> [iff @ 02538200] bitmap (compression 0x301, bpp 5, ham 0) is not
> implemented. Up
> date your FFmpeg version to the newest one from Git. If the problem still
> occurs
> , it means that your file has a feature which has not been implemented.
> [iff @ 02538200] If you want to help, upload a sample of this file to
> ftp://uplo
> ad.ffmpeg.org/incoming/ and contact the ffmpeg-devel mailing list.
> (ffmpeg-devel
> @ffmpeg.org)
> Error while decoding stream #0:0: Invalid data found when processing
> input
> [iff @ 02538200] bitmap (compression 0x301, bpp 5, ham 0) is not
> implemented. Up
> date your FFmpeg version to the newest one from Git. If the problem still
> occurs
> , it means that your file has a feature which has not been implemented.
> [iff @ 02538200] If you want to help, upload a sample of this file to
> ftp://uplo
> ad.ffmpeg.org/incoming/ and contact the ffmpeg-devel mailing list.
> (ffmpeg-devel
> @ffmpeg.org)
> Error while decoding stream #0:0: Invalid data found when processing
> input
> [iff @ 02538200] bitmap (compression 0x301, bpp 5, ham 0) is not
> implemented. Up
> date your FFmpeg version to the newest one from Git. If the problem still
> occurs
> , it means that your file has a feature which has not been implemented.
> [iff @ 02538200] If you want to help, upload a sample of this file to
> ftp://uplo
> ad.ffmpeg.org/incoming/ and contact the ffmpeg-devel mailing list.
> (ffmpeg-devel
> @ffmpeg.org)
> Error while decoding stream #0:0: Invalid data found when processing
> input
> [iff @ 02538200] bitmap (compression 0x301, bpp 5, ham 0) is not
> implemented. Up
> date your FFmpeg version to the newest one from Git. If the problem still
> occurs
> , it means that your file has a feature which has not been implemented.
> [iff @ 02538200] If you want to help, upload a sample of this file to
> ftp://uplo
> ad.ffmpeg.org/incoming/ and contact the ffmpeg-devel mailing list.
> (ffmpeg-devel
> @ffmpeg.org)
> Error while decoding stream #0:0: Invalid data found when processing
> input
> [iff @ 02538200] bitmap (compression 0x301, bpp 5, ham 0) is not
> implemented. Up
> date your FFmpeg version to the newest one from Git. If the problem still
> occurs
> , it means that your file has a feature which has not been implemented.
> [iff @ 02538200] If you want to help, upload a sample of this file to
> ftp://uplo
> ad.ffmpeg.org/incoming/ and contact the ffmpeg-devel mailing list.
> (ffmpeg-devel
> @ffmpeg.org)
> Error while decoding stream #0:0: Invalid data found when processing
> input
> [iff @ 02538200] bitmap (compression 0x301, bpp 5, ham 0) is not
> implemented. Up
> date your FFmpeg version to the newest one from Git. If the problem still
> occurs
> , it means that your file has a feature which has not been implemented.
> [iff @ 02538200] If you want to help, upload a sample of this file to
> ftp://uplo
> ad.ffmpeg.org/incoming/ and contact the ffmpeg-devel mailing list.
> (ffmpeg-devel
> @ffmpeg.org)
> Error while decoding stream #0:0: Invalid data found when processing
> input
> [iff @ 02538200] bitmap (compression 0x301, bpp 5, ham 0) is not
> implemented. Up
> date your FFmpeg version to the newest one from Git. If the problem still
> occurs
> , it means that your file has a feature which has not been implemented.
> [iff @ 02538200] If you want to help, upload a sample of this file to
> ftp://uplo
> ad.ffmpeg.org/incoming/ and contact the ffmpeg-devel mailing list.
> (ffmpeg-devel
> @ffmpeg.org)
> Error while decoding stream #0:0: Invalid data found when processing
> input
> [iff @ 02538200] bitmap (compression 0x301, bpp 5, ham 0) is not
> implemented. Up
> date your FFmpeg version to the newest one from Git. If the problem still
> occurs
> , it means that your file has a feature which has not been implemented.
> [iff @ 02538200] If you want to help, upload a sample of this file to
> ftp://uplo
> ad.ffmpeg.org/incoming/ and contact the ffmpeg-devel mailing list.
> (ffmpeg-devel
> @ffmpeg.org)
> Error while decoding stream #0:0: Invalid data found when processing
> input
> [iff @ 02538200] bitmap (compression 0x301, bpp 5, ham 0) is not
> implemented. Up
> date your FFmpeg version to the newest one from Git. If the problem still
> occurs
> , it means that your file has a feature which has not been implemented.
> [iff @ 02538200] If you want to help, upload a sample of this file to
> ftp://uplo
> ad.ffmpeg.org/incoming/ and contact the ffmpeg-devel mailing list.
> (ffmpeg-devel
> @ffmpeg.org)
> Error while decoding stream #0:0: Invalid data found when processing
> input
> [iff @ 02538200] bitmap (compression 0x301, bpp 5, ham 0) is not
> implemented. Up
> date your FFmpeg version to the newest one from Git. If the problem still
> occurs
> , it means that your file has a feature which has not been implemented.
> [iff @ 02538200] If you want to help, upload a sample of this file to
> ftp://uplo
> ad.ffmpeg.org/incoming/ and contact the ffmpeg-devel mailing list.
> (ffmpeg-devel
> @ffmpeg.org)
> Error while decoding stream #0:0: Invalid data found when processing
> input
> [iff @ 02538200] bitmap (compression 0x301, bpp 5, ham 0) is not
> implemented. Up
> date your FFmpeg version to the newest one from Git. If the problem still
> occurs
> , it means that your file has a feature which has not been implemented.
> [iff @ 02538200] If you want to help, upload a sample of this file to
> ftp://uplo
> ad.ffmpeg.org/incoming/ and contact the ffmpeg-devel mailing list.
> (ffmpeg-devel
> @ffmpeg.org)
> Error while decoding stream #0:0: Invalid data found when processing
> input
> [iff @ 02538200] bitmap (compression 0x301, bpp 5, ham 0) is not
> implemented. Up
> date your FFmpeg version to the newest one from Git. If the problem still
> occurs
> , it means that your file has a feature which has not been implemented.
> [iff @ 02538200] If you want to help, upload a sample of this file to
> ftp://uplo
> ad.ffmpeg.org/incoming/ and contact the ffmpeg-devel mailing list.
> (ffmpeg-devel
> @ffmpeg.org)
> Error while decoding stream #0:0: Invalid data found when processing
> input
> [iff @ 02538200] bitmap (compression 0x301, bpp 5, ham 0) is not
> implemented. Up
> date your FFmpeg version to the newest one from Git. If the problem still
> occurs
> , it means that your file has a feature which has not been implemented.
> [iff @ 02538200] If you want to help, upload a sample of this file to
> ftp://uplo
> ad.ffmpeg.org/incoming/ and contact the ffmpeg-devel mailing list.
> (ffmpeg-devel
> @ffmpeg.org)
> Error while decoding stream #0:0: Invalid data found when processing
> input
> [iff @ 02538200] bitmap (compression 0x301, bpp 5, ham 0) is not
> implemented. Up
> date your FFmpeg version to the newest one from Git. If the problem still
> occurs
> , it means that your file has a feature which has not been implemented.
> [iff @ 02538200] If you want to help, upload a sample of this file to
> ftp://uplo
> ad.ffmpeg.org/incoming/ and contact the ffmpeg-devel mailing list.
> (ffmpeg-devel
> @ffmpeg.org)
> Error while decoding stream #0:0: Invalid data found when processing
> input
> [iff @ 02538200] bitmap (compression 0x301, bpp 5, ham 0) is not
> implemented. Up
> date your FFmpeg version to the newest one from Git. If the problem still
> occurs
> , it means that your file has a feature which has not been implemented.
> [iff @ 02538200] If you want to help, upload a sample of this file to
> ftp://uplo
> ad.ffmpeg.org/incoming/ and contact the ffmpeg-devel mailing list.
> (ffmpeg-devel
> @ffmpeg.org)
> Error while decoding stream #0:0: Invalid data found when processing
> input
> [iff @ 02538200] bitmap (compression 0x301, bpp 5, ham 0) is not
> implemented. Up
> date your FFmpeg version to the newest one from Git. If the problem still
> occurs
> , it means that your file has a feature which has not been implemented.
> [iff @ 02538200] If you want to help, upload a sample of this file to
> ftp://uplo
> ad.ffmpeg.org/incoming/ and contact the ffmpeg-devel mailing list.
> (ffmpeg-devel
> @ffmpeg.org)
> Error while decoding stream #0:0: Invalid data found when processing
> input
> [iff @ 02538200] bitmap (compression 0x301, bpp 5, ham 0) is not
> implemented. Up
> date your FFmpeg version to the newest one from Git. If the problem still
> occurs
> , it means that your file has a feature which has not been implemented.
> [iff @ 02538200] If you want to help, upload a sample of this file to
> ftp://uplo
> ad.ffmpeg.org/incoming/ and contact the ffmpeg-devel mailing list.
> (ffmpeg-devel
> @ffmpeg.org)
> Error while decoding stream #0:0: Invalid data found when processing
> input
> frame=    1 fps=0.0 q=4.4 Lsize=      32kB time=00:00:00.01
> bitrate=15693.8kbits
> /s speed=0.267x
> video:26kB audio:0kB subtitle:0kB other streams:0kB global headers:0kB
> muxing ov
> erhead: 21.501301%
> }}}

New description:

 decodes correctly with ShowANIM from:

 *http://aminet.net/package/docs/misc/IFFSpecs

 IFF ANIM-3 files which I created (http://samples.ffmpeg.org/anim/) decodes
 incorrectly with ShowANIM, so may be broken

 {{{
 C:\>ffmpeg -i 0x301_2001-PanAm.anim out.avi
 ffmpeg version 3.0.git Copyright (c) 2000-2016 the FFmpeg developers
   built with gcc 4.6.2 (GCC)
   configuration: --disable-pthreads --enable-gpl --disable-ffprobe
   libavutil      55. 24.100 / 55. 24.100
   libavcodec     57. 40.100 / 57. 40.100
   libavformat    57. 36.100 / 57. 36.100
   libavdevice    57.  0.101 / 57.  0.101
   libavfilter     6. 45.100 /  6. 45.100
   libswscale      4.  1.100 /  4.  1.100
   libswresample   2.  0.101 /  2.  0.101
   libpostproc    54.  0.100 / 54.  0.100
 [iff @ 021ad1a0] Warning: not compiled with thread support, using thread
 emulati
 on
 Input #0, iff, from '0x301_2001-PanAm.anim':
   Duration: N/A, bitrate: N/A
     Stream #0:0: Video: iff_ilbm (ANIM / 0x4D494E41), pal8, 352x440, SAR
 20:11 D
 AR 16:11, 60 fps, 60 tbr, 60 tbn
 [iff @ 02538200] Warning: not compiled with thread support, using thread
 emulati
 on
 [mpeg4 @ 02539400] Warning: not compiled with thread support, using thread
 emula
 tion
 [avi @ 0253e760] Using AVStream.codec to pass codec parameters to muxers
 is depr
 ecated, use AVStream.codecpar instead.
 Output #0, avi, to 'out.avi':
   Metadata:
     ISFT            : Lavf57.36.100
     Stream #0:0: Video: mpeg4 (FMP4 / 0x34504D46), yuv420p, 352x440 [SAR
 20:11 D
 AR 16:11], q=2-31, 200 kb/s, 60 fps, 60 tbn
     Metadata:
       encoder         : Lavc57.40.100 mpeg4
     Side data:
       cpb: bitrate max/min/avg: 0/0/200000 buffer size: 0 vbv_delay: -1
 Stream mapping:
   Stream #0:0 -> #0:0 (iff_ilbm (iff) -> mpeg4 (native))
 Press [q] to stop, [?] for help
 [iff @ 02538200] bitmap (compression 0x301, bpp 5, ham 0) is not
 implemented. Up
 date your FFmpeg version to the newest one from Git. If the problem still
 occurs
 , it means that your file has a feature which has not been implemented.
 [iff @ 02538200] If you want to help, upload a sample of this file to
 ftp://uplo
 ad.ffmpeg.org/incoming/ and contact the ffmpeg-devel mailing list.
 (ffmpeg-devel
 @ffmpeg.org)
 Error while decoding stream #0:0: Invalid data found when processing input
 [iff @ 02538200] bitmap (compression 0x301, bpp 5, ham 0) is not
 implemented. Up
 date your FFmpeg version to the newest one from Git. If the problem still
 occurs
 , it means that your file has a feature which has not been implemented.
 [iff @ 02538200] If you want to help, upload a sample of this file to
 ftp://uplo
 ad.ffmpeg.org/incoming/ and contact the ffmpeg-devel mailing list.
 (ffmpeg-devel
 @ffmpeg.org)
 Error while decoding stream #0:0: Invalid data found when processing input
 [iff @ 02538200] bitmap (compression 0x301, bpp 5, ham 0) is not
 implemented. Up
 date your FFmpeg version to the newest one from Git. If the problem still
 occurs
 , it means that your file has a feature which has not been implemented.
 [iff @ 02538200] If you want to help, upload a sample of this file to
 ftp://uplo
 ad.ffmpeg.org/incoming/ and contact the ffmpeg-devel mailing list.
 (ffmpeg-devel
 @ffmpeg.org)
 Error while decoding stream #0:0: Invalid data found when processing input
 [iff @ 02538200] bitmap (compression 0x301, bpp 5, ham 0) is not
 implemented. Up
 date your FFmpeg version to the newest one from Git. If the problem still
 occurs
 , it means that your file has a feature which has not been implemented.
 [iff @ 02538200] If you want to help, upload a sample of this file to
 ftp://uplo
 ad.ffmpeg.org/incoming/ and contact the ffmpeg-devel mailing list.
 (ffmpeg-devel
 @ffmpeg.org)
 Error while decoding stream #0:0: Invalid data found when processing input
 [iff @ 02538200] bitmap (compression 0x301, bpp 5, ham 0) is not
 implemented. Up
 date your FFmpeg version to the newest one from Git. If the problem still
 occurs
 , it means that your file has a feature which has not been implemented.
 [iff @ 02538200] If you want to help, upload a sample of this file to
 ftp://uplo
 ad.ffmpeg.org/incoming/ and contact the ffmpeg-devel mailing list.
 (ffmpeg-devel
 @ffmpeg.org)
 Error while decoding stream #0:0: Invalid data found when processing input
 [iff @ 02538200] bitmap (compression 0x301, bpp 5, ham 0) is not
 implemented. Up
 date your FFmpeg version to the newest one from Git. If the problem still
 occurs
 , it means that your file has a feature which has not been implemented.
 [iff @ 02538200] If you want to help, upload a sample of this file to
 ftp://uplo
 ad.ffmpeg.org/incoming/ and contact the ffmpeg-devel mailing list.
 (ffmpeg-devel
 @ffmpeg.org)
 Error while decoding stream #0:0: Invalid data found when processing input
 [iff @ 02538200] bitmap (compression 0x301, bpp 5, ham 0) is not
 implemented. Up
 date your FFmpeg version to the newest one from Git. If the problem still
 occurs
 , it means that your file has a feature which has not been implemented.
 [iff @ 02538200] If you want to help, upload a sample of this file to
 ftp://uplo
 ad.ffmpeg.org/incoming/ and contact the ffmpeg-devel mailing list.
 (ffmpeg-devel
 @ffmpeg.org)
 Error while decoding stream #0:0: Invalid data found when processing input
 [iff @ 02538200] bitmap (compression 0x301, bpp 5, ham 0) is not
 implemented. Up
 date your FFmpeg version to the newest one from Git. If the problem still
 occurs
 , it means that your file has a feature which has not been implemented.
 [iff @ 02538200] If you want to help, upload a sample of this file to
 ftp://uplo
 ad.ffmpeg.org/incoming/ and contact the ffmpeg-devel mailing list.
 (ffmpeg-devel
 @ffmpeg.org)
 Error while decoding stream #0:0: Invalid data found when processing input
 [iff @ 02538200] bitmap (compression 0x301, bpp 5, ham 0) is not
 implemented. Up
 date your FFmpeg version to the newest one from Git. If the problem still
 occurs
 , it means that your file has a feature which has not been implemented.
 [iff @ 02538200] If you want to help, upload a sample of this file to
 ftp://uplo
 ad.ffmpeg.org/incoming/ and contact the ffmpeg-devel mailing list.
 (ffmpeg-devel
 @ffmpeg.org)
 Error while decoding stream #0:0: Invalid data found when processing input
 [iff @ 02538200] bitmap (compression 0x301, bpp 5, ham 0) is not
 implemented. Up
 date your FFmpeg version to the newest one from Git. If the problem still
 occurs
 , it means that your file has a feature which has not been implemented.
 [iff @ 02538200] If you want to help, upload a sample of this file to
 ftp://uplo
 ad.ffmpeg.org/incoming/ and contact the ffmpeg-devel mailing list.
 (ffmpeg-devel
 @ffmpeg.org)
 Error while decoding stream #0:0: Invalid data found when processing input
 [iff @ 02538200] bitmap (compression 0x301, bpp 5, ham 0) is not
 implemented. Up
 date your FFmpeg version to the newest one from Git. If the problem still
 occurs
 , it means that your file has a feature which has not been implemented.
 [iff @ 02538200] If you want to help, upload a sample of this file to
 ftp://uplo
 ad.ffmpeg.org/incoming/ and contact the ffmpeg-devel mailing list.
 (ffmpeg-devel
 @ffmpeg.org)
 Error while decoding stream #0:0: Invalid data found when processing input
 [iff @ 02538200] bitmap (compression 0x301, bpp 5, ham 0) is not
 implemented. Up
 date your FFmpeg version to the newest one from Git. If the problem still
 occurs
 , it means that your file has a feature which has not been implemented.
 [iff @ 02538200] If you want to help, upload a sample of this file to
 ftp://uplo
 ad.ffmpeg.org/incoming/ and contact the ffmpeg-devel mailing list.
 (ffmpeg-devel
 @ffmpeg.org)
 Error while decoding stream #0:0: Invalid data found when processing input
 [iff @ 02538200] bitmap (compression 0x301, bpp 5, ham 0) is not
 implemented. Up
 date your FFmpeg version to the newest one from Git. If the problem still
 occurs
 , it means that your file has a feature which has not been implemented.
 [iff @ 02538200] If you want to help, upload a sample of this file to
 ftp://uplo
 ad.ffmpeg.org/incoming/ and contact the ffmpeg-devel mailing list.
 (ffmpeg-devel
 @ffmpeg.org)
 Error while decoding stream #0:0: Invalid data found when processing input
 [iff @ 02538200] bitmap (compression 0x301, bpp 5, ham 0) is not
 implemented. Up
 date your FFmpeg version to the newest one from Git. If the problem still
 occurs
 , it means that your file has a feature which has not been implemented.
 [iff @ 02538200] If you want to help, upload a sample of this file to
 ftp://uplo
 ad.ffmpeg.org/incoming/ and contact the ffmpeg-devel mailing list.
 (ffmpeg-devel
 @ffmpeg.org)
 Error while decoding stream #0:0: Invalid data found when processing input
 [iff @ 02538200] bitmap (compression 0x301, bpp 5, ham 0) is not
 implemented. Up
 date your FFmpeg version to the newest one from Git. If the problem still
 occurs
 , it means that your file has a feature which has not been implemented.
 [iff @ 02538200] If you want to help, upload a sample of this file to
 ftp://uplo
 ad.ffmpeg.org/incoming/ and contact the ffmpeg-devel mailing list.
 (ffmpeg-devel
 @ffmpeg.org)
 Error while decoding stream #0:0: Invalid data found when processing input
 [iff @ 02538200] bitmap (compression 0x301, bpp 5, ham 0) is not
 implemented. Up
 date your FFmpeg version to the newest one from Git. If the problem still
 occurs
 , it means that your file has a feature which has not been implemented.
 [iff @ 02538200] If you want to help, upload a sample of this file to
 ftp://uplo
 ad.ffmpeg.org/incoming/ and contact the ffmpeg-devel mailing list.
 (ffmpeg-devel
 @ffmpeg.org)
 Error while decoding stream #0:0: Invalid data found when processing input
 [iff @ 02538200] bitmap (compression 0x301, bpp 5, ham 0) is not
 implemented. Up
 date your FFmpeg version to the newest one from Git. If the problem still
 occurs
 , it means that your file has a feature which has not been implemented.
 [iff @ 02538200] If you want to help, upload a sample of this file to
 ftp://uplo
 ad.ffmpeg.org/incoming/ and contact the ffmpeg-devel mailing list.
 (ffmpeg-devel
 @ffmpeg.org)
 Error while decoding stream #0:0: Invalid data found when processing input
 [iff @ 02538200] bitmap (compression 0x301, bpp 5, ham 0) is not
 implemented. Up
 date your FFmpeg version to the newest one from Git. If the problem still
 occurs
 , it means that your file has a feature which has not been implemented.
 [iff @ 02538200] If you want to help, upload a sample of this file to
 ftp://uplo
 ad.ffmpeg.org/incoming/ and contact the ffmpeg-devel mailing list.
 (ffmpeg-devel
 @ffmpeg.org)
 Error while decoding stream #0:0: Invalid data found when processing input
 [iff @ 02538200] bitmap (compression 0x301, bpp 5, ham 0) is not
 implemented. Up
 date your FFmpeg version to the newest one from Git. If the problem still
 occurs
 , it means that your file has a feature which has not been implemented.
 [iff @ 02538200] If you want to help, upload a sample of this file to
 ftp://uplo
 ad.ffmpeg.org/incoming/ and contact the ffmpeg-devel mailing list.
 (ffmpeg-devel
 @ffmpeg.org)
 Error while decoding stream #0:0: Invalid data found when processing input
 [iff @ 02538200] bitmap (compression 0x301, bpp 5, ham 0) is not
 implemented. Up
 date your FFmpeg version to the newest one from Git. If the problem still
 occurs
 , it means that your file has a feature which has not been implemented.
 [iff @ 02538200] If you want to help, upload a sample of this file to
 ftp://uplo
 ad.ffmpeg.org/incoming/ and contact the ffmpeg-devel mailing list.
 (ffmpeg-devel
 @ffmpeg.org)
 Error while decoding stream #0:0: Invalid data found when processing input
 [iff @ 02538200] bitmap (compression 0x301, bpp 5, ham 0) is not
 implemented. Up
 date your FFmpeg version to the newest one from Git. If the problem still
 occurs
 , it means that your file has a feature which has not been implemented.
 [iff @ 02538200] If you want to help, upload a sample of this file to
 ftp://uplo
 ad.ffmpeg.org/incoming/ and contact the ffmpeg-devel mailing list.
 (ffmpeg-devel
 @ffmpeg.org)
 Error while decoding stream #0:0: Invalid data found when processing input
 [iff @ 02538200] bitmap (compression 0x301, bpp 5, ham 0) is not
 implemented. Up
 date your FFmpeg version to the newest one from Git. If the problem still
 occurs
 , it means that your file has a feature which has not been implemented.
 [iff @ 02538200] If you want to help, upload a sample of this file to
 ftp://uplo
 ad.ffmpeg.org/incoming/ and contact the ffmpeg-devel mailing list.
 (ffmpeg-devel
 @ffmpeg.org)
 Error while decoding stream #0:0: Invalid data found when processing input
 [iff @ 02538200] bitmap (compression 0x301, bpp 5, ham 0) is not
 implemented. Up
 date your FFmpeg version to the newest one from Git. If the problem still
 occurs
 , it means that your file has a feature which has not been implemented.
 [iff @ 02538200] If you want to help, upload a sample of this file to
 ftp://uplo
 ad.ffmpeg.org/incoming/ and contact the ffmpeg-devel mailing list.
 (ffmpeg-devel
 @ffmpeg.org)
 Error while decoding stream #0:0: Invalid data found when processing input
 [iff @ 02538200] bitmap (compression 0x301, bpp 5, ham 0) is not
 implemented. Up
 date your FFmpeg version to the newest one from Git. If the problem still
 occurs
 , it means that your file has a feature which has not been implemented.
 [iff @ 02538200] If you want to help, upload a sample of this file to
 ftp://uplo
 ad.ffmpeg.org/incoming/ and contact the ffmpeg-devel mailing list.
 (ffmpeg-devel
 @ffmpeg.org)
 Error while decoding stream #0:0: Invalid data found when processing input
 [iff @ 02538200] bitmap (compression 0x301, bpp 5, ham 0) is not
 implemented. Up
 date your FFmpeg version to the newest one from Git. If the problem still
 occurs
 , it means that your file has a feature which has not been implemented.
 [iff @ 02538200] If you want to help, upload a sample of this file to
 ftp://uplo
 ad.ffmpeg.org/incoming/ and contact the ffmpeg-devel mailing list.
 (ffmpeg-devel
 @ffmpeg.org)
 Error while decoding stream #0:0: Invalid data found when processing input
 frame=    1 fps=0.0 q=4.4 Lsize=      32kB time=00:00:00.01
 bitrate=15693.8kbits
 /s speed=0.267x
 video:26kB audio:0kB subtitle:0kB other streams:0kB global headers:0kB
 muxing ov
 erhead: 21.501301%
 }}}

--

Comment:

 Fixed in 01ead2a6396357aa3f7ab7066880eb219a5dc1f6.

 xanim plays ham6/8 files fine, i will inspect this bug later.

--
Ticket URL: <https://trac.ffmpeg.org/ticket/5552#comment:2>
FFmpeg <https://ffmpeg.org>
FFmpeg issue tracker


More information about the FFmpeg-trac mailing list