[FFmpeg-user] SMPTE 302m (unknown codec s302m)

Paul Salman pauls150 at hotmail.com
Thu Feb 9 08:28:16 CET 2012

I have a stream that has what I believe is dolby e audio, and I was wondering if I could get some help in getting the audio out of the transport stream.
Here is what the file looks like:
Duration: 00:00:30.11, start: 0.246800, bitrate: 44254 kb/s
 Program 1
 Stream #0:0[0x31]: Video: mpeg2video (Main) ([2][0][0][0] / 0x0002), yuv420p
 Stream #0:1[0x33]: Audio: s302m (BSSD / 0x44535342), 48000 Hz, stereo, s32, 2304 kb/s
I tried several combinations of audio codecs pcm_s24le/ pcm_s32le with no luck so far. Trying -acodec s302m I get an "unknown codec s302m" error message.
Any help is appreciated.

More information about the ffmpeg-user mailing list